INHALE (2010) DVDRip-XviD

INHALE (2010) DVDRip-XviD
RELEASED: 2010
GENRE: Drama | Thriller
Format : AVI
Format/Info : Audio Video Interleave
Format profile : OpenDML
Format settings : rec
File size : 755 MiB
Duration : 1h 33mn
Overall bit rate : 1 132 Kbps
Writing application : AVI-Mux GUI 1.17.8.3, Feb 16 201019:42:50
http://imdb.com/title/tt1196340/


PLOT:
A couple goes to dangerous lengths to find a lung donor for their daughter.
CAST:
Mia Stallard ... Chloe
Dermot Mulroney ... Paul Stanton
Diane Kruger ... Diane Stanton
Sam Shepard ... James Harrison
Jordi Mollà ... Aguilar
Vincent Perez ... Dr. Martinez
Rosanna Arquette ... Dr. Rubin
David Selby ... Henry White
Cesar Ramos ... Ines
Kristian Ferrer ... Miguel (as Kristyan Ferrer)
Video
ID : 0
Format : MPEG-4 Visual
Format profile : Advanced Simple@L5
Format settings, BVOP : 2
Format settings, QPel : No
Format settings, GMC : No warppoints
Format settings, Matrix : Default (H.263)
Codec ID : XVID
Codec ID/Hint : XviD
Duration : 1h 33mn
Bit rate : 1 001 Kbps
Width : 608 pixels
Height : 256 pixels
Display aspect ratio : 2.35:1
Frame rate : 23.976 fps
Color space : YUV
Chroma subsampling : 4:2:0
Bit depth : 8 bits
Scan type : Progressive
Compression mode : Lossy
Bits/(Pixel*Frame) : 0.268
Stream size : 667 MiB (88%)
Writing library : XviD 1.2.1 (UTC 2008-12-04)
Audio
ID : 1
Format : MPEG Audio
Format version : Version 1
Format profile : Layer 3
Mode : Joint stereo
Mode extension : MS Stereo
Codec ID : 55
Codec ID/Hint : MP3
Duration : 1h 33mn
Bit rate mode : Constant
Bit rate : 128 Kbps
Channel(s) : 2 channels
Sampling rate : 44.1 KHz
Compression mode : Lossy
Stream size : 85.3 MiB (11%)
Alignment : Aligned on interleaves
Interleave, duration : 717 ms (17.20 video frames)
Interleave, preload duration : 208 ms
Title : VTS_01_1 T80 3_2ch 448Kbps DELAY 0ms
Writing library : LAME3.98r
Encoding settings : -m j -V 4 -q 2 -lowpass 17 -b 128